Skip to main content

Dawes Live at Majestic Theatre on 2010-11-12

Audio Preview

etree
Dawes Live at Majestic Theatre on 2010-11-12

by Dawes



01. intro
02. My Girl To Me
03. When You Call My Name
04. So Well
05. That Western Skyline
06. God Rest My Soul
07. My Way Back Home
08. Bedside Manner
09. How Far We've Come
10. Love Is All I Am
11. Time Spent In Los Angeles
12. Peace In The Valley
13. Fire Away
14. When My Time Comes
15. encore break
16. encore intro
17. A Little Bit Of Everything
18. Let Me Be Your Anchor
19. aftershow music on PA
20. recordist's signout


Collection Dawes
Band/Artist Dawes
Venue Majestic Theatre
Location Madison WI

Source SBD + AUD mix
Lineage WAV > FLAC
Taped by morst
Transferred by morst & digitalist0ne

Notes

Moondoggies & The Romany Rye opened for Dawes
Moondoggies set: http://www.archive.org/details/Moondoggies2010-11-12

HD Videos by morst, with good audio from this version:







My Girl To Me
video at H264 (29 MB)
P2530606-AudioFixed_000027.jpg
My Girl To Me
video in HD (503 MB)
P2630877-AudioFixed.gif
Time Spent In Los Angeles
video at H264 (28 MB)
P2640315-AudioFixed_000027.jpg
Time Spent In Los Angeles
video in HD (461 MB)
P2640315-AudioFixed.gif



Griffin Goldsmith's birthday!

SHNTOOL:
length expanded size cdr WAVE problems fmt ratio filename
0:28.291 8147846 B cxx -- ---xx flac 0.6958 Dawes2010-11-12t01.flac
6:15.537 108154814 B cxx -- ---xx flac 0.7800 Dawes2010-11-12t02.flac
4:55.215 85021886 B cxx -- ---xx flac 0.7535 Dawes2010-11-12t03.flac
6:34.823 113709116 B cxx -- ---xx flac 0.6922 Dawes2010-11-12t04.flac
6:25.730 111090182 B cxx -- ---xx flac 0.7153 Dawes2010-11-12t05.flac
5:24.979 93593972 B cxx -- ---xx flac 0.7495 Dawes2010-11-12t06.flac
6:38.042 114636146 B cxx -- ---xx flac 0.7256 Dawes2010-11-12t07.flac
4:40.115 80673146 B cxx -- ---xx flac 0.7258 Dawes2010-11-12t08.flac
3:42.816 64171118 B cxx -- ---xx flac 0.7433 Dawes2010-11-12t09.flac
7:11.411 124246424 B cxx -- ---xx flac 0.6849 Dawes2010-11-12t10.flac
4:18.355 74406236 B cxx -- ---xx flac 0.7585 Dawes2010-11-12t11.flac
8:23.416 144983744 B cxx -- ---xx flac 0.7138 Dawes2010-11-12t12.flac
7:17.101 125885036 B cxx -- ---xx flac 0.7290 Dawes2010-11-12t13.flac
5:04.683 87748670 B cxx -- ---xx flac 0.7231 Dawes2010-11-12t14.flac
0:56.243 16197980 B cxx -- ---xx flac 0.6846 Dawes2010-11-12t15.flac
0:53.643 15449126 B cxx -- ---xx flac 0.6449 Dawes2010-11-12t16.flac
5:39.930 97899854 B cxx -- ---xx flac 0.7040 Dawes2010-11-12t17.flac
4:41.087 80953070 B cxx -- ---xx flac 0.7157 Dawes2010-11-12t18.flac
0:39.744 11446448 B cxx -- ---xx flac 0.6759 Dawes2010-11-12t19.flac
0:56.405 16244774 B cxx -- ---xx flac 0.6835 Dawes2010-11-12t20.flac
91:07.565 1574659588 B 0.7232 (20 files)

-~-~-~-~-~-~-~-~-~-~-~-~-~-~-~-~-~-~-~-~-~-~-~-~-~-
The Soundscape Preservation Society (Founded 1991)
http://www.iamtypingwithonefinger.com/SPS.html
-~-~-~-~-~-~-~-~-~-~-~-~-~-~-~-~-~-~-~-~-~-~-~-~-~-

comment
Reviews

Reviewer: TomAmmo - favoritefavoritefavoritefavorite - August 17, 2015
Subject: Thanks
Great show. Nice quality. Awesome setlist. Thanks!
DOWNLOAD OPTIONS
In Collection
Dawes
In Collection
Live Music Archive
Uploaded by
morst
on 5/10/2011
Views
7,277
Favorites
3
Reviews
1
SIMILAR ITEMS (based on metadata)
Dawes
by Dawes
etree
eye 4,160
favorite 4
comment 4
favoritefavoritefavoritefavorite ( 4 reviews )
Source: KM140’s > MV100 > PCM-M10 > WAV@24/48 + Digidesign Venue > PCM-M10 > WAV@24/48
Dawes
by Dawes
etree
eye 2,851
favorite 4
comment 3
favoritefavoritefavoritefavorite ( 3 reviews )
Source: [SBD] + [AK40 (DIN, clamped to balcony, ROC) > LC3 > KM100] >> R-44 (Oade CM) >> WAV @ 24bit/44.1KHz
Dawes
etree
eye 2,854
favorite 3
comment 1
favoritefavoritefavoritefavoritefavorite ( 1 reviews )
Source: Mackie SBD tape outs > Sony PCM-M1 > DAT @16/48 Neumann KM140's > Beyer MV100 > M-Audio Microtrack II > WAV @24/48
Dawes
by Dawes
etree
eye 1,646
favorite 1
comment 1
favoritefavoritefavoritefavorite ( 1 reviews )
Source: [AK40 (ORTF, ~7' high, back of room @ soundboard) >> LC3 >> KM100] + [digital SBD feed] >> R-44 (Oade CM) >> WAV (24bit/48KHz)
Dawes
etree
eye 1,235
favorite 1
comment 0
Source: Neumann KM140's (ORTF with windscreens on stand, right side, back of main floor) > Beyer MV100 > M-Audio Microtrack II > WAV @24-bit/48kHz + Soundcraft Spirit 8 SBD > Zoom H2 > WAV @24-bit/48kHz
Dawes
etree
eye 346
favorite 1
comment 0
Source: Neumann KM140's (ORTF with windscreens on stand, right side, back of main floor) > Beyer MV100 > M-Audio Microtrack II > WAV @24-bit/48kHz + Soundcraft Spirit 8 SBD > Zoom H2 > WAV @24-bit/48kHz
The Steepwater Band
by The Steepwater Band
etree
eye 321
favorite 1
comment 0
Source: Neumann KM140's (X/Y approx 90 degrees, on stand, third "row" center table, approx 15' from stage) > Beyer MV100 > Sony PCM-M10 > WAV + Allen & Heath GL4000 SBD > Sony PCM-M10 > WAV @24/48
Dawes
by Dawes
etree
eye 708
favorite 1
comment 0
Source: [SBD] + [AK40 (ORTF, ~7' high @ SBD) > LC3 > KM100 > Aerco MP-2] >> R-44 (Oade CM) >> WAV @ 24bit/44.1KHz
Dawes
by Dawes
etree
eye 506
favorite 1
comment 0
Source: Allen & Heath GL3300 SBD > Sony PCM-M1 > DAT + Neumann KM140’s > MV100 > -11dB attenuator cable > H2 (mic pads set at -10dB) > WAV @24-bit/48kHz (clamped on ctr post, ~8' high)
Dawes
by Dawes
etree
eye 653
favorite 1
comment 0
Source: Mackie SBD > Sony PCM-M1 > DAT + Neumann KM140’s > MV100 > -11dB attenuator cable > H2 (mic pads set at -10dB) > WAV @24-bit/48kHz (ORTF on stand, rt of center, 9' high)